Frozen 2013 CAM XViD-BL4CKP34RL [P2PDL] - Форум

Мой сайт

Суббота, 10.12.2016, 12:51
Приветствую Вас Прохожий
Главная

Регистрация

Вход

RSS


[ Новые сообщения · Участники · Правила форума · Поиск · RSS ]
Страница 1 из 11
Модератор форума: Lumen 
Форум » Общий раздел » Гильдии Ельфов » Frozen 2013 CAM XViD-BL4CKP34RL [P2PDL]
Frozen 2013 CAM XViD-BL4CKP34RL [P2PDL]
testantloДата: Воскресенье, 09.03.2014, 18:13 | Сообщение # 1
Эльф Обученый
Группа: Эльфы Новички
Сообщений: 99
Награды: 0
Репутация: 0
Статус: Offline
Награды
За 20 Сообщений За 50 Сообщений
Frozen 2013 CAM XViD-BL4CKP34RL [P2PDL -
Category: Video > Movies
SIZE: 1.39GiB

http://go.8qb.biz/?endl&k....676.jpg - http://afisha.pp.ua/auto/download.png
http://go.8qb.biz/?endl&k....676.jpg - http://image.bayimg.com/01ed458ccbd7865803ec0ff25705f58a6080d676.jpg
_____________________________
Description
-----------------------------
A Fine Release Brought to you from - BL4CKP34RL


******************************************************************************************
Frozen.2013.CAM.XViD-BL4CKP34RL
******************************************************************************************

Ripper ...........: J4CKSP4RR0W IMDB Rating.......: 8.1/10
Video Codec.......: XViD Release Date......: 6 December 2013
Audio Codec.......: mp3 Theatre Date......: 27 November 2013
Audio Bitrate.....: 128 kbps Runtime...........: 1hr 32min 27sec
Subtitles.........: no Language..........: ENGLISH
Resolution........: 720x368 IMDb URL..........: http://www.imdb.com/title/tt2294629/

DETAILS:

Format : AVI
Format/Info : Audio Video Interleave
File size : 1.37 GiB
Duration : 1h 32mn
Overall bit rate : 2 124 Kbps
Writing application : VirtualDubMod 1.5.10.2 (build 2540/release)
Writing library : VirtualDub build 32839/release

Video
ID : 0
Format : MPEG-4 Visual
Format profile : Advanced Simple@L5
Format settings, BVOP : 2
Format settings, QPel : Yes
Format settings, GMC : No warppoints
Format settings, Matrix : Default (H.263)
Muxing mode : Packed bitstream
Codec ID : XVID
Codec ID/Hint : XviD
Duration : 1h 32mn
Bit rate : 1 984 Kbps
Width : 720 pixels
Height : 368 pixels
Display aspect ratio : 1.957
Frame rate : 29.970 fps
Color space : YUV
Chroma subsampling : 4:2:0
Bit depth : 8 bits
Scan type : Progressive
Compression mode : Lossy
Bits/(Pixel*Frame) : 0.250
Stream size : 1.28 GiB (93%)
Writing library : XviD 64

Audio
ID : 1
Format : AC-3
Format/Info : Audio Coding 3
Mode extension : CM (complete main)
Format settings, Endianness : Big
Codec ID : 2000
Duration : 1h 32mn
Bit rate mode : Constant
Bit rate : 128 Kbps
Channel(s) : 2 channels
Channel positions : Front: L R
Sampling rate : 48.0 KHz
Bit depth : 16 bits
Compression mode : Lossy
Stream size : 84.6 MiB (6%)
Alignment : Split accross interleaves
Interleave, duration : 33 ms (1.00 video frame)
Interleave, preload duration : 500 ms

SOURCES:

VIDEO: .............sum source ...thanks
AUDIO: .............same place...thanks

NOTES:

Blurred watermarks then fixed what we could.. still a few blocky parts but alot beter than it was.. audio pretty decent CAM audio.

SCREENS :

<a href="
http://s27.postimg.org/wx0o8m3sz/1el_Pf7_U.jpg " rel="nofollow">
http://s27.postimg.org/wx0o8m3sz/1el_Pf7_U.jpg</a > <a href="
http://s27.postimg.org/p5jya1znn/6lri_Q4_I.jpg " rel="nofollow">
http://s27.postimg.org/p5jya1znn/6lri_Q4_I.jpg</a > <a href="
http://s27.postimg.org/mpmq9y6yr/6_Ta_JYV8.jpg " rel="nofollow">
http://s27.postimg.org/mpmq9y6yr/6_Ta_JYV8.jpg</a > <a href="
http://s27.postimg.org/gd7l043wj/mxilj_Oi.jpg " rel="nofollow">
http://s27.postimg.org/gd7l043wj/mxilj_Oi.jpg</a >
_____________________________
Comments
-----------------------------

_____________________________
Tags
-----------------------------
Frozen (2013) CAM XviD-BL4CKP34RL В» IRFree irfree.comcam frozen-2013-cam-xvid-bl4ckp34rl .html Frozen (2013) CAM XviD-BL4CKP34RL Language: English 1h 32mn | 720 x 368 | XviD - 1 984 Kbps | 29.970 fps | AC3 - 128 Kbps | 1.37 GiB Genre: Animation | Adventure Frozen 2013 CAM XViD-BL4CKP34RL - Download now | OpenDown.net opendown.netfrozen2013camxvid-bl4ckp34rl .html Frozen 2013 CAM XViD-BL4CKP34RL Language: English Size: 1.39 GB File: Frozen.2013.CAM.XViD-BL4CKP34RL .avi Size: 1472727960 bytes (1.37 GiB), duration: 01:32:27, avg Frozen 2013 cam xvid bl4ckp34rl all download free dreamonload.comfrozen-2013-cam-xvid-bl4ckp34rl FROZEN ( 2013 ) CAM READNFO XViD-CHiLLYWiLLY FROZEN ( 2013 ) CAM READNFO XViD-CHiLLYWiLLY Release Group: CHiLLYWiLLY (P2P) Release Name: Frozen . 2013 . Frozen 2013 CAM XViD-BL4CKP34RL В» Tiny Download frozen-2013-cam-xvid-bl4ckp34rl .html Frozen 2013 CAM XViD-BL4CKP34RL | 1.39 GB File: Frozen.2013.CAM.XViD-BL4CKP34RL .avi Size: 1472727960 bytes (1.37 GiB), duration: 01:32:27, avg.bitrate: 2124 kbRapidMoviez - [UL Frozen 2013 CAM XViD-BL4CKP34RL (1 rapidmoviez.comfrozen-2013-cam-xvid-bl4ckp34rl Download Frozen from Uploaded, Www180upload, Hugefiles release [UL Frozen 2013 CAM XViD-BL4CKP34RL (1.4GB) Frozen (2013) CAM XviD-BL4CKP34RL Download All You Want frozen-2013-cam-xvid-bl4ckp34rl .html Frozen (2013) CAM XviD-BL4CKP34RL . Buy Premium Account From My Download Links Frozen . 2013 . CAM .rar Frozen.2013.CAM.XViD-BL4CKP34RL - usenet-crawler - A dark View NZB for Frozen.2013.CAM.XViD-BL4CKP34RL - usenet-crawler a quick usenet indexer Torrentbit.net - Frozen 2013 CAM XViD-BL4CKP34RL [P2PDL Frozen %20 2013 %20 CAM %20XViDbp-fc- 22.21 MB bp-fcFrozen.2013.CAM.XViD-BL4CKP34RL .avi - 1.37 GB bp-fc- 5.2 KB Download Frozen 2013 CAM XViD-BL4CKP34RL [P2PDL - Torrent 1337x.orgfrozen; 2013; cam; xvid; BL4CKP34RL ; p2pdl; description; files; comments(0) tracker list; A Fine Release Brought to you from - BL4CKP34RL ***** Frozen 2013 CAM XViD-BL4CKP34RL [P2PDL - torrent - Share the " Frozen 2013 CAM XViD-BL4CKP34RL [P2PDL - " [Report Torrent - Frozen 2013 CAM XViD-BL4CKP34RL [P2PDL - Download - Frozen 2013 CAM XViD-BL4CKP34RL [P2PDL - torrent from Pagination 1 2 3 4 5 Next
cde:QzpccHJvamVjdFxYUlVNRVJcdGV4dHMyXEZyb3plbisyMDEzK0NBTStYVmlELUJMNENLUDM0UkwrW1AyUERMXStieStTYW11ZWwudHh0:cde


http://forum.polskikacik.pl/showthread.php?tid=102952%22/
http://www.roofing.manolisroofing.com/bayzone....12-free
http://dare2theft.com/2014/02/28/stronghold-2-patchcrack/
http://www.kingdomlifevisioncenterofdestin.com/2014....oid-2-3
http://forum.polskikacik.pl/showthread.php?tid=128840%22/
http://artifexdei.com/forum/viewtopic.php?f=3&t=75158 - HD Pack Superior Wallpapers (582) [HotWallpapers -
http://www.poetsandquants.ca/discuss/showthread.php?tid=22642 - create-torrents-1.0a and encode-handheld-5.4
http://stolendisc.net/profile.php?lookup=4122 - free games download for android mobile on google play
http://baohiemvn.vn/forum/forum.php?mod=viewthread&tid=100125&extra= - download google maps api v2
http://www.777smerti.net/board....-1-0-12 - SIGNEDSIS_Route66_Part11_HSM01
http://liceum-hlevnoe.my1.ru/news....-22-117
http://universidades-peruanas.com/showthread.php?tid=57311
http://myjavaworld.ru/load....1-0-180
http://forum.agropasja.pl/index.p....ost&f=2
http://ka-print.ru/forum/viewtopic.php?f=5&t=288667
 
Форум » Общий раздел » Гильдии Ельфов » Frozen 2013 CAM XViD-BL4CKP34RL [P2PDL]
Страница 1 из 11
Поиск: